Descargar Peliculas, descargar musica, descargar series

Buscador de Descargas :

descarga directa descarga directa descarga directa descarga directa

 Descargar directa peliculas

Pelicula Descarga Directa: Terminator [HD 1080p] [1984]

Acción, Ciencia Ficción | 108 min.

Terminator, un ’cyborg’ en parte humano y en parte máquina, es enviado al año 1984 desde el futuro para matar a la joven Sarah Connor antes de que siquiera se quede embarazada del niño que se convertirá en el líder salvador de los hombres del dominio de los máquinas, que en el año 2029 controlan el mundo en continúa batalla con los pocos supervivientes humanos. La resistencia humana deciden contraatacar, por su parte, enviar a Kyle Reese quien deberá intentar detener al Terminator y salvaguardar la vida de Sarah.

Gracias a:[nedstark]

=>Ficha Tecnica:

Título original: The Terminator
País: USA / UK
Estreno en USA: 26/10/1984
Estreno en España: 24/01/1985
Estreno en DVD (venta): 08/03/2001
DVD Edición Definitiva: 22/11/2006
Productora: Orion Pictures
Director: James Cameron
Guión: James Cameron, William Wisher Jr. & Gale Anne Hurd
Reparto: Michael Biehn, Linda Hamilton, Arnold Schwarzenegger, Paul Winfield, Lance Henriksen, Earl Boen, Bess Motta, Rick Rossovich.

Format : Matroska
File size : 3.82 GiB
Duration : 1h 42mn
Overall bit rate : 5 323 Kbps
Movie name : Terminator I SinNMar
Encoded date : UTC 2011-05-01 12:45:22
Writing application : mkvmerge v4.5.0 (‘Speed of Light’) built on Feb 1 2011 02:10:32
Writing library : libebml v1.2.0 + libmatroska v1.1.0

Video
ID : 1
Format : AVC
Format/Info : Advanced Video Codec
Format profile : High@L4.1
Format settings, CABAC : Yes
Format settings, ReFrames : 4 frames
Codec ID : V_MPEG4/ISO/AVC
Duration : 1h 42mn
Bit rate : 3 800 Kbps
Width : 1 920 pixels
Height : 1 040 pixels
Display aspect ratio : 16:9
Frame rate : 25.000 fps
Color space : YUV
Chroma subsampling : 4:2:0
Bit depth : 8 bits
Scan type : Progressive
Bits/(Pixel*Frame) : 0.076
Stream size : 2.65 GiB (69%)
Title : Encoded SinNMar
Writing library : x264 core 114 r1924 08d04a4
Encoding settings : cabac=1 / ref=4 / deblock=1:0:0 / analyse=0×3:0×113 / me=umh / subme=10 / psy=1 / psy_rd=1.00:0.00 / mixed_ref=1 / me_range=24 / chroma_me=1 / trellis=2 / 8×8dct=1 / cqm=0 / deadzone=21,11 / fast_pskip=1 / chroma_qp_offset=-2 / threads=6 / sliced_threads=0 / nr=0 / decimate=1 / interlaced=0 / constrained_intra=0 / bframes=3 / b_pyramid=2 / b_adapt=2 / b_bias=0 / direct=3 / weightb=1 / open_gop=0 / weightp=2 / keyint=250 / keyint_min=25 / scenecut=40 / intra_refresh=0 / rc_lookahead=50 / rc=2pass / mbtree=1 / bitrate=3800 / ratetol=1.0 / qcomp=0.60 / qpmin=0 / qpmax=69 / qpstep=4 / cplxblur=20.0 / qblur=0.5 / ip_ratio=1.40 / aq=1:1.00
Language : English

Audio #1
ID : 2
Format : AC-3
Format/Info : Audio Coding 3
Mode extension : CM (complete main)
Codec ID : A_AC3
Duration : 1h 42mn
Bit rate mode : Constant
Bit rate : 384 Kbps
Channel(s) : 6 channels
Channel positions : Front: L C R, Side: L R, LFE
Sampling rate : 48.0 KHz
Bit depth : 16 bits
Compression mode : Lossy
Stream size : 282 MiB (7%)
Title : AC3
Language : Spanish

Audio #2
ID : 3
Format : DTS
Format/Info : Digital Theater Systems
Codec ID : A_DTS
Duration : 1h 42mn
Bit rate mode : Constant
Bit rate : 755 Kbps
Channel(s) : 6 channels
Channel positions : Front: L C R, Side: L R, LFE
Sampling rate : 48.0 KHz
Bit depth : 16 bits
Compression mode : Lossy
Delay relative to video : 11ms
Stream size : 555 MiB (14%)
Title : DTS
Language : Spanish

Audio #3
ID : 4
Format : AC-3
Format/Info : Audio Coding 3
Mode extension : CM (complete main)
Codec ID : A_AC3
Duration : 1h 42mn
Bit rate mode : Constant
Bit rate : 384 Kbps
Channel(s) : 6 channels
Channel positions : Front: L C R, Side: L R, LFE
Sampling rate : 48.0 KHz
Bit depth : 16 bits
Compression mode : Lossy
Stream size : 282 MiB (7%)
Language : English

Text #1
ID : 5
Format : UTF-8
Codec ID : S_TEXT/UTF8
Codec ID/Info : UTF-8 Plain Text
Language : Spanish

Text #2
ID : 6
Format : UTF-8
Codec ID : S_TEXT/UTF8
Codec ID/Info : UTF-8 Plain Text
Language : English

==>[fileserve]: Para descargar pelicula Click en el OJO <==

PARTE 1 : PARTE 2 : PARTE 3 : PARTE 4 :
Gracias a:[nedstark] Gracias a:[nedstark] Gracias a:[nedstark] Gracias a:[nedstark]

==>[uploaded.to]: Para descargar pelicula Click en el OJO <==

PARTE 1 : PARTE 2 : PARTE 3 : PARTE 4 :
Gracias a:[nedstark] Gracias a:[nedstark] Gracias a:[nedstark] Gracias a:[nedstark]

==>[filejungle]: Para descargar pelicula Click en el OJO <==

PARTE 1 : PARTE 2 : PARTE 3 : PARTE 4 :
Gracias a:[nedstark] Gracias a:[nedstark] Gracias a:[nedstark] Gracias a:[nedstark]

Un comentario for "Pelicula: Terminator [HD 1080p] [1984] [Castellano/V.O]"

  1. MaCcO69 Octubre 6th, 2012 at 10:51 pm

    podeis subirla otra vez?


Dejar Comentario